Colbie caillat dating jason reeves ebony shemale dating site

Bien qu'elle ait quelques notions de piano, elle choisit la guitare afin de s'accompagner et de composer.Pour son premier album, Coco (juillet 2007), elle s'entoure de deux personnes-clés : Michael Blue (qui, lorsqu'elle avait quinze ans, lui avait demandé de chanter des chansons qu'il avait écrites, et qui devient également producteur de Coco) et Jason Reeves (chanteur-compositeur).Deux ans plus tard, sa blondeur se retrouve au sommet avec Breakthrough plus forte vente aux Etats-Unis lors de sa sortie.Conservant son style pop rock gentillet mâtiné de country, Colbie Caillat tente de faire aussi bien en 2011 avec All of You.C'est donc à onze ans que Colbie Caillat (surnommée Coco par son entourage, d'où le titre de l'album) fait ses premières vocalises.Sous l'oeil averti et les conseils experts de son père, Colbie comprend que pour être considérée comme une artiste à part entière, il lui faut devenir auteure-compositrice, car chanter c'est bien, mais écrire c'est encore mieux.

Justin Yang)" PERFORMER "Colbie Caillat" INDEX 00 FILE "18 - Turn Your Lights Down Low (Live feat.

01 - Oxygen () 02 - The Little Things () 03 - One Fine Wire () 04 - Bubbly () 05 - Feelings Show () 06 - Midnight Bottle () 07 - Realize () 08 - Battle () 09 - Tailor Made () 10 - Magic () 11 - Tied Down () 12 - Capri ()Exact Audio Copy V0.99 prebeta 4 from 23. February 2009, Colbie Caillat / Coco Used drive : PLDS DVD -RW DH-16A6S Adapter: 0 ID: 1 Read mode : Secure Utilize accurate stream : Yes Defeat audio cache : Yes Make use of C2 pointers : No Read offset correction : 6 Overread into Lead-In and Lead-Out : No Fill up missing offset samples with silence : Yes Delete leading and trailing silent blocks : No Null samples used in CRC calculations : Yes Used interface : Native Win32 interface for Win NT & 2000 Gap handling : Appended to previous track Used output format : User Defined Encoder Selected bitrate : 320 k Bit/s Quality : High Add ID3 tag : No Command line compressor : C:\Program Files (x86)\Exact Audio Copy\Flac\Additional command line options : -V -8 -T "artist=%a" -T "title=%t" -T "album=%g" -T "date=%y" -T "tracknumber=%n" -T "genre=%m" %s TOC of the extracted CD Track | Start | Length | Start sector | End sector --------------------------------------------------------- 1 | .00 | .17 | 0 | 17341 2 | .17 | .04 | 17342 | 34295 3 | .21 | .61 | 34296 | 50631 4 | .07 | .12 | 50632 | 65418 5 | .19 | .49 | 65419 | 79717 6 | .68 | .68 | 79718 | 96360 7 | .61 | .43 | 96361 | 114778 8 | .29 | .59 | 114779 | 133062 9 | .13 | .23 | 133063 | 153335 10 | .36 | .23 | 153336 | 168733 11 | .59 | .71 | 168734 | 182829 12 | .55 | .44 | 182830 | 196448 Track 1 Filename C:\EACRips\Colbie Caillat - 2007 - Coco

Justin Yang)" PERFORMER "Colbie Caillat" INDEX 00 FILE "18 - Turn Your Lights Down Low (Live feat.

01 - Oxygen () 02 - The Little Things () 03 - One Fine Wire () 04 - Bubbly () 05 - Feelings Show () 06 - Midnight Bottle () 07 - Realize () 08 - Battle () 09 - Tailor Made () 10 - Magic () 11 - Tied Down () 12 - Capri ()Exact Audio Copy V0.99 prebeta 4 from 23. February 2009, Colbie Caillat / Coco Used drive : PLDS DVD -RW DH-16A6S Adapter: 0 ID: 1 Read mode : Secure Utilize accurate stream : Yes Defeat audio cache : Yes Make use of C2 pointers : No Read offset correction : 6 Overread into Lead-In and Lead-Out : No Fill up missing offset samples with silence : Yes Delete leading and trailing silent blocks : No Null samples used in CRC calculations : Yes Used interface : Native Win32 interface for Win NT & 2000 Gap handling : Appended to previous track Used output format : User Defined Encoder Selected bitrate : 320 k Bit/s Quality : High Add ID3 tag : No Command line compressor : C:\Program Files (x86)\Exact Audio Copy\Flac\Additional command line options : -V -8 -T "artist=%a" -T "title=%t" -T "album=%g" -T "date=%y" -T "tracknumber=%n" -T "genre=%m" %s TOC of the extracted CD Track | Start | Length | Start sector | End sector --------------------------------------------------------- 1 | .00 | .17 | 0 | 17341 2 | .17 | .04 | 17342 | 34295 3 | .21 | .61 | 34296 | 50631 4 | .07 | .12 | 50632 | 65418 5 | .19 | .49 | 65419 | 79717 6 | .68 | .68 | 79718 | 96360 7 | .61 | .43 | 96361 | 114778 8 | .29 | .59 | 114779 | 133062 9 | .13 | .23 | 133063 | 153335 10 | .36 | .23 | 153336 | 168733 11 | .59 | .71 | 168734 | 182829 12 | .55 | .44 | 182830 | 196448 Track 1 Filename C:\EACRips\Colbie Caillat - 2007 - Coco\01 - Pre-gap length .00 Peak level 99.7 % Track quality 100.0 % Test CRC FEB29AFB Copy CRC FEB29AFB Accurately ripped (confidence 146) [CDB877BB] Copy OK Track 2 Filename C:\EACRips\Colbie Caillat - 2007 - Coco\02 - The Little Pre-gap length .50 Peak level 99.7 % Track quality 100.0 % Test CRC 7C90BE98 Copy CRC 7C90BE98 Accurately ripped (confidence 147) [6DE5E805] Copy OK Track 3 Filename C:\EACRips\Colbie Caillat - 2007 - Coco\03 - One Fine Pre-gap length .32 Peak level 99.7 % Track quality 99.9 % Test CRC B469181E Copy CRC B469181E Accurately ripped (confidence 146) [2B75D45D] Copy OK Track 4 Filename C:\EACRips\Colbie Caillat - 2007 - Coco\04 - Pre-gap length .30 Peak level 99.7 % Track quality 100.0 % Test CRC E4A4357F Copy CRC E4A4357F Accurately ripped (confidence 149) [19260211] Copy OK Track 5 Filename C:\EACRips\Colbie Caillat - 2007 - Coco\05 - Feelings Pre-gap length .88 Peak level 99.7 % Track quality 100.0 % Test CRC D66542E3 Copy CRC D66542E3 Accurately ripped (confidence 147) [319E9058] Copy OK Track 6 Filename C:\EACRips\Colbie Caillat - 2007 - Coco\06 - Midnight Pre-gap length .90 Peak level 99.7 % Track quality 100.0 % Test CRC 59079A6D Copy CRC 59079A6D Accurately ripped (confidence 147) [DACDA6D1] Copy OK Track 7 Filename C:\EACRips\Colbie Caillat - 2007 - Coco\07 - Pre-gap length .70 Peak level 99.7 % Track quality 100.0 % Test CRC B4D358C7 Copy CRC B4D358C7 Accurately ripped (confidence 147) [5EE9C9BF] Copy OK Track 8 Filename C:\EACRips\Colbie Caillat - 2007 - Coco\08 - Pre-gap length .46 Peak level 99.7 % Track quality 100.0 % Test CRC F2CF489A Copy CRC F2CF489A Accurately ripped (confidence 147) [0B12B505] Copy OK Track 9 Filename C:\EACRips\Colbie Caillat - 2007 - Coco\09 - Tailor Pre-gap length .01 Peak level 99.7 % Track quality 99.9 % Test CRC 4F04D0B6 Copy CRC 4F04D0B6 Accurately ripped (confidence 147) [A6FD75EC] Copy OK Track 10 Filename C:\EACRips\Colbie Caillat - 2007 - Coco\10 - Pre-gap length .26 Peak level 99.7 % Track quality 100.0 % Test CRC 64DB6883 Copy CRC 64DB6883 Accurately ripped (confidence 147) [D481EB58] Copy OK Track 11 Filename C:\EACRips\Colbie Caillat - 2007 - Coco\11 - Tied Pre-gap length .89 Peak level 99.7 % Track quality 99.9 % Test CRC 9CEDC881 Copy CRC 9CEDC881 Accurately ripped (confidence 146) [8A9F0E5A] Copy OK Track 12 Filename C:\EACRips\Colbie Caillat - 2007 - Coco\12 - Pre-gap length .44 Peak level 95.2 % Track quality 100.0 % Test CRC 0452B3BF Copy CRC 0452B3BF Accurately ripped (confidence 148) [B1E504F0] Copy OK All tracks accurately ripped No errors occurred End of status report REM GENRE Pop REM DATE 2007 REM DISCID A70A3B0C REM COMMENT "Exact Audio Copy v0.99pb4" PERFORMER "Colbie Caillat" TITLE "Coco" FILE "01 - Oxygen.wav" WAVE TRACK 01 AUDIO TITLE "Oxygen" PERFORMER "Colbie Caillat" INDEX 01 TRACK 02 AUDIO TITLE "The Little Things" PERFORMER "Colbie Caillat" INDEX 00 FILE "02 - The Little Things.wav" WAVE INDEX 01 TRACK 03 AUDIO TITLE "One Fine Wire" PERFORMER "Colbie Caillat" INDEX 00 FILE "03 - One Fine Wire.wav" WAVE INDEX 01 TRACK 04 AUDIO TITLE "Bubbly" PERFORMER "Colbie Caillat" INDEX 00 FILE "04 - Bubbly.wav" WAVE INDEX 01 TRACK 05 AUDIO TITLE "Feelings Show" PERFORMER "Colbie Caillat" INDEX 00 FILE "05 - Feelings Show.wav" WAVE INDEX 01 TRACK 06 AUDIO TITLE "Midnight Bottle" PERFORMER "Colbie Caillat" INDEX 00 FILE "06 - Midnight Bottle.wav" WAVE INDEX 01 TRACK 07 AUDIO TITLE "Realize" PERFORMER "Colbie Caillat" INDEX 00 FILE "07 - Realize.wav" WAVE INDEX 01 TRACK 08 AUDIO TITLE "Battle" PERFORMER "Colbie Caillat" INDEX 00 FILE "08 - Battle.wav" WAVE INDEX 01 TRACK 09 AUDIO TITLE "Tailor Made" PERFORMER "Colbie Caillat" INDEX 00 FILE "09 - Tailor Made.wav" WAVE INDEX 01 TRACK 10 AUDIO TITLE "Magic" PERFORMER "Colbie Caillat" INDEX 00 FILE "10 - Magic.wav" WAVE INDEX 01 TRACK 11 AUDIO TITLE "Tied Down" PERFORMER "Colbie Caillat" INDEX 00 FILE "11 - Tied Down.wav" WAVE INDEX 01 TRACK 12 AUDIO TITLE "Capri" PERFORMER "Colbie Caillat" INDEX 00 FILE "12 - Capri.wav" WAVE INDEX 01 01 - Oxygen () 02 - The Little Things () 03 - One Fine Wire () 04 - Bubbly () 05 - Feelings Show () 06 - Midnight Bottle () 07 - Realize () 08 - Battle () 09 - Tailor Made () 10 - Magic () 11 - Tied Down () 12 - Capri () 13 - Tell Him (Live) () 14 - Brand New Me (with The Wailers) () 15 - Somethin' Special (Beijing Olympic Mix) () 16 - Circles () 17 - Hoy Me Voy (feat.

Juanes) () 18 - Turn Your Lights Down Low (Live feat.

De nombreux labels lui propose de la produire, mais Colbie Caillat préfère la liberté de créativité plus présente chez Universal Republic et signe donc pour son premier album, Coco.

Paru à l'été 2007 aux Etats-Unis, il bénéficie d'une promotion européenne l'hiver suivant.

||

Justin Yang)" PERFORMER "Colbie Caillat" INDEX 00 FILE "18 - Turn Your Lights Down Low (Live feat.01 - Oxygen () 02 - The Little Things () 03 - One Fine Wire () 04 - Bubbly () 05 - Feelings Show () 06 - Midnight Bottle () 07 - Realize () 08 - Battle () 09 - Tailor Made () 10 - Magic () 11 - Tied Down () 12 - Capri ()Exact Audio Copy V0.99 prebeta 4 from 23. February 2009, Colbie Caillat / Coco Used drive : PLDS DVD -RW DH-16A6S Adapter: 0 ID: 1 Read mode : Secure Utilize accurate stream : Yes Defeat audio cache : Yes Make use of C2 pointers : No Read offset correction : 6 Overread into Lead-In and Lead-Out : No Fill up missing offset samples with silence : Yes Delete leading and trailing silent blocks : No Null samples used in CRC calculations : Yes Used interface : Native Win32 interface for Win NT & 2000 Gap handling : Appended to previous track Used output format : User Defined Encoder Selected bitrate : 320 k Bit/s Quality : High Add ID3 tag : No Command line compressor : C:\Program Files (x86)\Exact Audio Copy\Flac\Additional command line options : -V -8 -T "artist=%a" -T "title=%t" -T "album=%g" -T "date=%y" -T "tracknumber=%n" -T "genre=%m" %s TOC of the extracted CD Track | Start | Length | Start sector | End sector --------------------------------------------------------- 1 | .00 | .17 | 0 | 17341 2 | .17 | .04 | 17342 | 34295 3 | .21 | .61 | 34296 | 50631 4 | .07 | .12 | 50632 | 65418 5 | .19 | .49 | 65419 | 79717 6 | .68 | .68 | 79718 | 96360 7 | .61 | .43 | 96361 | 114778 8 | .29 | .59 | 114779 | 133062 9 | .13 | .23 | 133063 | 153335 10 | .36 | .23 | 153336 | 168733 11 | .59 | .71 | 168734 | 182829 12 | .55 | .44 | 182830 | 196448 Track 1 Filename C:\EACRips\Colbie Caillat - 2007 - Coco\01 - Pre-gap length .00 Peak level 99.7 % Track quality 100.0 % Test CRC FEB29AFB Copy CRC FEB29AFB Accurately ripped (confidence 146) [CDB877BB] Copy OK Track 2 Filename C:\EACRips\Colbie Caillat - 2007 - Coco\02 - The Little Pre-gap length .50 Peak level 99.7 % Track quality 100.0 % Test CRC 7C90BE98 Copy CRC 7C90BE98 Accurately ripped (confidence 147) [6DE5E805] Copy OK Track 3 Filename C:\EACRips\Colbie Caillat - 2007 - Coco\03 - One Fine Pre-gap length .32 Peak level 99.7 % Track quality 99.9 % Test CRC B469181E Copy CRC B469181E Accurately ripped (confidence 146) [2B75D45D] Copy OK Track 4 Filename C:\EACRips\Colbie Caillat - 2007 - Coco\04 - Pre-gap length .30 Peak level 99.7 % Track quality 100.0 % Test CRC E4A4357F Copy CRC E4A4357F Accurately ripped (confidence 149) [19260211] Copy OK Track 5 Filename C:\EACRips\Colbie Caillat - 2007 - Coco\05 - Feelings Pre-gap length .88 Peak level 99.7 % Track quality 100.0 % Test CRC D66542E3 Copy CRC D66542E3 Accurately ripped (confidence 147) [319E9058] Copy OK Track 6 Filename C:\EACRips\Colbie Caillat - 2007 - Coco\06 - Midnight Pre-gap length .90 Peak level 99.7 % Track quality 100.0 % Test CRC 59079A6D Copy CRC 59079A6D Accurately ripped (confidence 147) [DACDA6D1] Copy OK Track 7 Filename C:\EACRips\Colbie Caillat - 2007 - Coco\07 - Pre-gap length .70 Peak level 99.7 % Track quality 100.0 % Test CRC B4D358C7 Copy CRC B4D358C7 Accurately ripped (confidence 147) [5EE9C9BF] Copy OK Track 8 Filename C:\EACRips\Colbie Caillat - 2007 - Coco\08 - Pre-gap length .46 Peak level 99.7 % Track quality 100.0 % Test CRC F2CF489A Copy CRC F2CF489A Accurately ripped (confidence 147) [0B12B505] Copy OK Track 9 Filename C:\EACRips\Colbie Caillat - 2007 - Coco\09 - Tailor Pre-gap length .01 Peak level 99.7 % Track quality 99.9 % Test CRC 4F04D0B6 Copy CRC 4F04D0B6 Accurately ripped (confidence 147) [A6FD75EC] Copy OK Track 10 Filename C:\EACRips\Colbie Caillat - 2007 - Coco\10 - Pre-gap length .26 Peak level 99.7 % Track quality 100.0 % Test CRC 64DB6883 Copy CRC 64DB6883 Accurately ripped (confidence 147) [D481EB58] Copy OK Track 11 Filename C:\EACRips\Colbie Caillat - 2007 - Coco\11 - Tied Pre-gap length .89 Peak level 99.7 % Track quality 99.9 % Test CRC 9CEDC881 Copy CRC 9CEDC881 Accurately ripped (confidence 146) [8A9F0E5A] Copy OK Track 12 Filename C:\EACRips\Colbie Caillat - 2007 - Coco\12 - Pre-gap length .44 Peak level 95.2 % Track quality 100.0 % Test CRC 0452B3BF Copy CRC 0452B3BF Accurately ripped (confidence 148) [B1E504F0] Copy OK All tracks accurately ripped No errors occurred End of status report REM GENRE Pop REM DATE 2007 REM DISCID A70A3B0C REM COMMENT "Exact Audio Copy v0.99pb4" PERFORMER "Colbie Caillat" TITLE "Coco" FILE "01 - Oxygen.wav" WAVE TRACK 01 AUDIO TITLE "Oxygen" PERFORMER "Colbie Caillat" INDEX 01 TRACK 02 AUDIO TITLE "The Little Things" PERFORMER "Colbie Caillat" INDEX 00 FILE "02 - The Little Things.wav" WAVE INDEX 01 TRACK 03 AUDIO TITLE "One Fine Wire" PERFORMER "Colbie Caillat" INDEX 00 FILE "03 - One Fine Wire.wav" WAVE INDEX 01 TRACK 04 AUDIO TITLE "Bubbly" PERFORMER "Colbie Caillat" INDEX 00 FILE "04 - Bubbly.wav" WAVE INDEX 01 TRACK 05 AUDIO TITLE "Feelings Show" PERFORMER "Colbie Caillat" INDEX 00 FILE "05 - Feelings Show.wav" WAVE INDEX 01 TRACK 06 AUDIO TITLE "Midnight Bottle" PERFORMER "Colbie Caillat" INDEX 00 FILE "06 - Midnight Bottle.wav" WAVE INDEX 01 TRACK 07 AUDIO TITLE "Realize" PERFORMER "Colbie Caillat" INDEX 00 FILE "07 - Realize.wav" WAVE INDEX 01 TRACK 08 AUDIO TITLE "Battle" PERFORMER "Colbie Caillat" INDEX 00 FILE "08 - Battle.wav" WAVE INDEX 01 TRACK 09 AUDIO TITLE "Tailor Made" PERFORMER "Colbie Caillat" INDEX 00 FILE "09 - Tailor Made.wav" WAVE INDEX 01 TRACK 10 AUDIO TITLE "Magic" PERFORMER "Colbie Caillat" INDEX 00 FILE "10 - Magic.wav" WAVE INDEX 01 TRACK 11 AUDIO TITLE "Tied Down" PERFORMER "Colbie Caillat" INDEX 00 FILE "11 - Tied Down.wav" WAVE INDEX 01 TRACK 12 AUDIO TITLE "Capri" PERFORMER "Colbie Caillat" INDEX 00 FILE "12 - Capri.wav" WAVE INDEX 01 01 - Oxygen () 02 - The Little Things () 03 - One Fine Wire () 04 - Bubbly () 05 - Feelings Show () 06 - Midnight Bottle () 07 - Realize () 08 - Battle () 09 - Tailor Made () 10 - Magic () 11 - Tied Down () 12 - Capri () 13 - Tell Him (Live) () 14 - Brand New Me (with The Wailers) () 15 - Somethin' Special (Beijing Olympic Mix) () 16 - Circles () 17 - Hoy Me Voy (feat.Juanes) () 18 - Turn Your Lights Down Low (Live feat.De nombreux labels lui propose de la produire, mais Colbie Caillat préfère la liberté de créativité plus présente chez Universal Republic et signe donc pour son premier album, Coco.Paru à l'été 2007 aux Etats-Unis, il bénéficie d'une promotion européenne l'hiver suivant.

- Pre-gap length .00 Peak level 99.7 % Track quality 100.0 % Test CRC FEB29AFB Copy CRC FEB29AFB Accurately ripped (confidence 146) [CDB877BB] Copy OK Track 2 Filename C:\EACRips\Colbie Caillat - 2007 - Coco - The Little Pre-gap length .50 Peak level 99.7 % Track quality 100.0 % Test CRC 7C90BE98 Copy CRC 7C90BE98 Accurately ripped (confidence 147) [6DE5E805] Copy OK Track 3 Filename C:\EACRips\Colbie Caillat - 2007 - Coco - One Fine Pre-gap length .32 Peak level 99.7 % Track quality 99.9 % Test CRC B469181E Copy CRC B469181E Accurately ripped (confidence 146) [2B75D45D] Copy OK Track 4 Filename C:\EACRips\Colbie Caillat - 2007 - Coco - Pre-gap length .30 Peak level 99.7 % Track quality 100.0 % Test CRC E4A4357F Copy CRC E4A4357F Accurately ripped (confidence 149) [19260211] Copy OK Track 5 Filename C:\EACRips\Colbie Caillat - 2007 - Coco - Feelings Pre-gap length .88 Peak level 99.7 % Track quality 100.0 % Test CRC D66542E3 Copy CRC D66542E3 Accurately ripped (confidence 147) [319E9058] Copy OK Track 6 Filename C:\EACRips\Colbie Caillat - 2007 - Coco - Midnight Pre-gap length .90 Peak level 99.7 % Track quality 100.0 % Test CRC 59079A6D Copy CRC 59079A6D Accurately ripped (confidence 147) [DACDA6D1] Copy OK Track 7 Filename C:\EACRips\Colbie Caillat - 2007 - Coco - Pre-gap length .70 Peak level 99.7 % Track quality 100.0 % Test CRC B4D358C7 Copy CRC B4D358C7 Accurately ripped (confidence 147) [5EE9C9BF] Copy OK Track 8 Filename C:\EACRips\Colbie Caillat - 2007 - Coco - Pre-gap length .46 Peak level 99.7 % Track quality 100.0 % Test CRC F2CF489A Copy CRC F2CF489A Accurately ripped (confidence 147) [0B12B505] Copy OK Track 9 Filename C:\EACRips\Colbie Caillat - 2007 - Coco - Tailor Pre-gap length .01 Peak level 99.7 % Track quality 99.9 % Test CRC 4F04D0B6 Copy CRC 4F04D0B6 Accurately ripped (confidence 147) [A6FD75EC] Copy OK Track 10 Filename C:\EACRips\Colbie Caillat - 2007 - Coco - Pre-gap length .26 Peak level 99.7 % Track quality 100.0 % Test CRC 64DB6883 Copy CRC 64DB6883 Accurately ripped (confidence 147) [D481EB58] Copy OK Track 11 Filename C:\EACRips\Colbie Caillat - 2007 - Coco - Tied Pre-gap length .89 Peak level 99.7 % Track quality 99.9 % Test CRC 9CEDC881 Copy CRC 9CEDC881 Accurately ripped (confidence 146) [8A9F0E5A] Copy OK Track 12 Filename C:\EACRips\Colbie Caillat - 2007 - Coco - Pre-gap length .44 Peak level 95.2 % Track quality 100.0 % Test CRC 0452B3BF Copy CRC 0452B3BF Accurately ripped (confidence 148) [B1E504F0] Copy OK All tracks accurately ripped No errors occurred End of status report REM GENRE Pop REM DATE 2007 REM DISCID A70A3B0C REM COMMENT "Exact Audio Copy v0.99pb4" PERFORMER "Colbie Caillat" TITLE "Coco" FILE "01 - Oxygen.wav" WAVE TRACK 01 AUDIO TITLE "Oxygen" PERFORMER "Colbie Caillat" INDEX 01 TRACK 02 AUDIO TITLE "The Little Things" PERFORMER "Colbie Caillat" INDEX 00 FILE "02 - The Little Things.wav" WAVE INDEX 01 TRACK 03 AUDIO TITLE "One Fine Wire" PERFORMER "Colbie Caillat" INDEX 00 FILE "03 - One Fine Wire.wav" WAVE INDEX 01 TRACK 04 AUDIO TITLE "Bubbly" PERFORMER "Colbie Caillat" INDEX 00 FILE "04 - Bubbly.wav" WAVE INDEX 01 TRACK 05 AUDIO TITLE "Feelings Show" PERFORMER "Colbie Caillat" INDEX 00 FILE "05 - Feelings Show.wav" WAVE INDEX 01 TRACK 06 AUDIO TITLE "Midnight Bottle" PERFORMER "Colbie Caillat" INDEX 00 FILE "06 - Midnight Bottle.wav" WAVE INDEX 01 TRACK 07 AUDIO TITLE "Realize" PERFORMER "Colbie Caillat" INDEX 00 FILE "07 - Realize.wav" WAVE INDEX 01 TRACK 08 AUDIO TITLE "Battle" PERFORMER "Colbie Caillat" INDEX 00 FILE "08 - Battle.wav" WAVE INDEX 01 TRACK 09 AUDIO TITLE "Tailor Made" PERFORMER "Colbie Caillat" INDEX 00 FILE "09 - Tailor Made.wav" WAVE INDEX 01 TRACK 10 AUDIO TITLE "Magic" PERFORMER "Colbie Caillat" INDEX 00 FILE "10 - Magic.wav" WAVE INDEX 01 TRACK 11 AUDIO TITLE "Tied Down" PERFORMER "Colbie Caillat" INDEX 00 FILE "11 - Tied Down.wav" WAVE INDEX 01 TRACK 12 AUDIO TITLE "Capri" PERFORMER "Colbie Caillat" INDEX 00 FILE "12 - Capri.wav" WAVE INDEX 01 01 - Oxygen () 02 - The Little Things () 03 - One Fine Wire () 04 - Bubbly () 05 - Feelings Show () 06 - Midnight Bottle () 07 - Realize () 08 - Battle () 09 - Tailor Made () 10 - Magic () 11 - Tied Down () 12 - Capri () 13 - Tell Him (Live) () 14 - Brand New Me (with The Wailers) () 15 - Somethin' Special (Beijing Olympic Mix) () 16 - Circles () 17 - Hoy Me Voy (feat.

Juanes) () 18 - Turn Your Lights Down Low (Live feat.

De nombreux labels lui propose de la produire, mais Colbie Caillat préfère la liberté de créativité plus présente chez Universal Republic et signe donc pour son premier album, Coco.

Paru à l'été 2007 aux Etats-Unis, il bénéficie d'une promotion européenne l'hiver suivant.

colbie caillat dating jason reeves-79colbie caillat dating jason reeves-40colbie caillat dating jason reeves-23

De plus en plus d'internautes écoutent la chanson, la téléchargent sur leur propre page My Space.

Join our conversation (83 Comments).
Click Here To Leave Your Comment Colbie caillat dating jason reeves.

Comments:

Leave a Reply

Your email address will not be published. Required fields are marked *